<?xml version="1.0" standalone="no"?>
<!DOCTYPE svg PUBLIC "-//W3C//DTD SVG 1.1//EN" "http://www.w3.org/Graphics/SVG/1.1/DTD/svg11.dtd" >
<svg xmlns="http://www.w3.org/2000/svg">
<metadata>
Created by FontPrep 20130207 at Fri Jun  5 17:20:53 2015
 By Duncan McKenna
(C) FontSite Inc., 1996-2011. All Rights Reserved. www.fontsite.com
</metadata>
<defs>
<font id="8fc4555b287f72d7af6ab11435665dc1" horiz-adv-x='1024' >
  <font-face 
    font-family="CartoGothic-Regular-Regular"
    font-weight="400"
    font-stretch="normal"
    units-per-em="2048"
    panose-1="0 0 5 0 0 0 0 0 0 0"
    ascent="1552"
    descent="-496"
    x-height="1001"
    cap-height="1366"
    bbox="-59 -436 1946 1548"
    underline-thickness="50"
    underline-position="-103"
    unicode-range="U+000D-FB04"
  />
<missing-glyph horiz-adv-x="748" 
d="M544 1297h-408v-1229h408v1229zM612 1365v-1365h-544v1365h544z" />
    <glyph glyph-name=".notdef" horiz-adv-x="748" 
d="M544 1297h-408v-1229h408v1229zM612 1365v-1365h-544v1365h544z" />
    <glyph glyph-name="glyph1" horiz-adv-x="2048" 
 />
    <glyph glyph-name="glyph1" horiz-adv-x="2048" 
 />
    <glyph glyph-name="uni000D" unicode="&#xd;" horiz-adv-x="2048" 
 />
    <glyph glyph-name="space" unicode=" " horiz-adv-x="512" 
 />
    <glyph glyph-name="exclam" unicode="!" horiz-adv-x="800" 
d="M557 211v-211h-213v211h213zM532 379h-167l-33 987h225z" />
    <glyph glyph-name="quotedbl" unicode="&#x22;" horiz-adv-x="665" 
d="M547 928h-139l-33 547h205zM258 928h-141l-31 547h203z" />
    <glyph glyph-name="numbersign" unicode="#" 
d="M713 846h-267l-47 -301h265zM160 0l65 414h-182l20 131h177l47 301h-176l22 131h182l62 389h153l-61 -383h264l62 383h153l-61 -389h178l-21 -131h-180l-47 -301h182l-20 -131h-182l-66 -414h-153l65 414h-264l-66 -414h-153z" />
    <glyph glyph-name="dollar" unicode="$" 
d="M797 379q0 143 -222 221v-434q142 19 199 125q23 44 23 88zM295 1020q0 -76 84 -133q33 -20 100 -49v372q-184 -40 -184 -190zM96 1010q0 157 100 253t283 113v172h105v-170q64 1 170 -17t161 -40l-18 -184q-143 72 -313 82v-418l59 -21q51 -18 120 -52t99 -58
q133 -103 133 -272q-1 -170 -113 -278t-307 -130v-172h-104v170q-96 2 -162 14t-192 47l14 199q165 -83 340 -86v477q-119 33 -211 95t-128 126t-36 150z" />
    <glyph glyph-name="percent" unicode="%" horiz-adv-x="1665" 
d="M1122 332q0 -112 46 -175t124 -63t124 63t46 175t-44 176t-124 63q-80 1 -126 -63t-46 -176zM969 334q-1 166 85 259t240 93t238 -92t84 -258t-88 -263q-88 -96 -238 -96q-150 -1 -236 95t-85 262zM201 1034q-1 -112 45 -175q46 -62 126 -62q80 1 124 63q45 62 45 174
t-44 176q-45 64 -125 64t-126 -64t-45 -176zM47 1036q0 166 86 260q87 94 241 93q154 0 237 -92q83 -93 83 -259t-87 -262t-237 -96t-236 95q-87 95 -87 261zM1329 1450l-868 -1534h-129l868 1534h129z" />
    <glyph glyph-name="ampersand" unicode="&#x26;" horiz-adv-x="1425" 
d="M369 388q0 -109 76 -181t199 -72t249 127l-320 383q-83 -48 -110 -72q-94 -76 -94 -185zM512 1078q0 -54 26 -104t93 -134q111 66 159 121t48 117t-46 102t-116 41q-68 0 -116 -44t-48 -99zM629 -27q-203 0 -335 115t-132 294t151 296q49 38 162 84q-67 58 -110 146
t-43 165q0 133 99 219t253 86t250 -81t96 -197q0 -227 -289 -369l270 -328q77 139 86 338h183q-12 -298 -152 -469l232 -272h-240l-109 129q-88 -85 -173 -121t-199 -35z" />
    <glyph glyph-name="quotesingle" unicode="'" horiz-adv-x="374" 
d="M258 928h-141l-31 547h203z" />
    <glyph glyph-name="parenleft" unicode="(" horiz-adv-x="724" 
d="M330 533q0 -413 297 -951h-176q-324 499 -324 953q-1 377 219 773q38 70 98 167h174q-288 -529 -288 -942z" />
    <glyph glyph-name="parenright" unicode=")" horiz-adv-x="724" 
d="M598 522q0 -378 -220 -774q-38 -70 -97 -166h-175q289 532 289 944t-297 949h176q324 -499 324 -953z" />
    <glyph glyph-name="asterisk" unicode="*" 
d="M274 834l177 231l-283 82l43 137l276 -102l-10 293h146l-13 -293l279 102l45 -137l-281 -82l183 -229l-119 -88l-164 243l-162 -241z" />
    <glyph glyph-name="plus" unicode="+" 
d="M475 240v383h-395v149h395v381h150v-381h397v-149h-397v-383h-150z" />
    <glyph glyph-name="comma" unicode="," horiz-adv-x="546" 
d="M385 219l-170 -483h-172l123 483h219z" />
    <glyph glyph-name="hyphen" unicode="-" horiz-adv-x="514" 
d="M514 582v-154h-514v154h514z" />
    <glyph glyph-name="period" unicode="." horiz-adv-x="546" 
d="M383 219v-219h-219v219h219z" />
    <glyph glyph-name="slash" unicode="/" horiz-adv-x="890" 
d="M791 1475l-687 -1893h-163l692 1893h158z" />
    <glyph glyph-name="zero" unicode="0" 
d="M285 684q0 -285 82 -434q67 -117 191 -117q124 -1 190 139q67 140 67 404t-68 408t-190 145q-272 0 -272 -545zM86 689q0 269 72 439q56 126 158 194t232 67q129 1 231 -65t153 -175q82 -177 82 -465t-80 -465q-51 -114 -155 -180t-233 -66q-129 -1 -232 71
q-228 158 -228 645z" />
    <glyph glyph-name="one" unicode="1" 
d="M729 1366v-1366h-194v1153q-12 -16 -76 -76l-137 -119l-109 129l334 279h182z" />
    <glyph glyph-name="two" unicode="2" 
d="M979 162v-162h-870v207q330 283 480 474t150 323q1 95 -75 157t-207 62t-295 -99l-21 179q112 43 190 61t171 18q200 0 324 -104t124 -270q0 -128 -80 -262t-256 -312q-177 -178 -315 -280q50 8 145 8h535z" />
    <glyph glyph-name="three" unicode="3" 
d="M442 141q142 0 226 68q86 67 86 161q0 258 -400 259q-21 0 -63 -2v166q134 0 223 16q236 48 236 213q0 89 -77 146t-211 57t-298 -68l-12 168q166 59 356 59t315 -93t125 -267q0 -128 -90 -214t-237 -99q154 -7 249 -103t95 -256t-137 -266q-137 -104 -365 -104
q-177 0 -354 55l8 180q183 -76 325 -76z" />
    <glyph glyph-name="four" unicode="4" 
d="M682 461v543q0 66 2 92t21 204q-31 -96 -130 -273t-337 -566h444zM682 0v299h-639v162l553 905h281v-905h180v-162h-180v-299h-195z" />
    <glyph glyph-name="five" unicode="5" 
d="M464 145q134 0 224 77q90 78 90 202t-93 199t-229 75t-276 -47l10 715h756v-162h-575l-4 -262q0 -16 -7 -104q72 20 154 20q212 0 344 -118t131 -314q0 -196 -145 -318t-387 -122q-137 0 -287 47l6 180q154 -68 288 -68z" />
    <glyph glyph-name="six" unicode="6" 
d="M317 431q0 -123 72 -209t178 -87t176 81t70 206t-70 205q-69 82 -177 82q-108 1 -178 -77t-71 -201zM106 660q0 346 142 538t411 191q136 0 283 -46l-24 -174q-126 60 -234 60q-213 0 -313 -176q-32 -56 -54 -143t-22 -160v-33q40 69 124 110t185 41q178 0 293 -122
t115 -319q0 -196 -124 -324t-319 -128q-227 0 -345 170q-118 169 -118 515z" />
    <glyph glyph-name="seven" unicode="7" 
d="M104 1204v162h873v-162l-512 -1204h-217l411 938q82 182 129 268h-12q-32 -2 -102 -2h-570z" />
    <glyph glyph-name="eight" unicode="8" 
d="M289 375q-1 -105 77 -173t196 -67q118 0 189 61q72 61 72 156q0 131 -145 219q-49 32 -162 74q-227 -111 -227 -270zM778 1053q0 78 -68 132t-167 54q-98 1 -167 -53t-69 -130q1 -76 69 -138q68 -64 214 -125q188 123 188 260zM78 360q0 257 299 365q-118 25 -193 115
t-75 207q0 155 120 249q119 94 315 93t314 -93t119 -241q-1 -101 -67 -185t-187 -137q145 -47 222 -142t77 -226q0 -175 -128 -283t-338 -107q-210 -1 -344 107t-134 278z" />
    <glyph glyph-name="nine" unicode="9" 
d="M279 947q0 -125 70 -207q71 -82 177 -83q106 1 176 79t70 200t-72 210t-176 87q-105 -1 -175 -81t-70 -205zM80 942q0 196 122 324t314 127q227 1 347 -167t120 -485q0 -378 -142 -571t-419 -193q-125 0 -272 46l24 174q128 -60 240 -60q221 0 325 219q49 109 60 289
q-111 -147 -301 -147t-304 124t-114 320z" />
    <glyph glyph-name="colon" unicode=":" horiz-adv-x="546" 
d="M383 219v-219h-219v219h219zM383 1001v-219h-219v219h219z" />
    <glyph glyph-name="semicolon" unicode=";" horiz-adv-x="546" 
d="M383 219l-168 -483h-174l123 483h219zM365 1001v-219h-220v219h220z" />
    <glyph glyph-name="less" unicode="&#x3c;" horiz-adv-x="1024" 
d="M954 369v-183l-886 426v158l886 428v-184l-690 -322z" />
    <glyph glyph-name="equal" unicode="=" 
d="M1022 629v-150h-942v150h942zM1022 915v-149h-942v149h942z" />
    <glyph glyph-name="greater" unicode="&#x3e;" horiz-adv-x="1024" 
d="M956 770v-158l-886 -426v183l690 323l-690 322v182z" />
    <glyph glyph-name="question" unicode="?" horiz-adv-x="1042" 
d="M657 213v-213h-208v213h208zM546 1389q170 0 287 -98t117 -255q0 -89 -40 -167t-134 -188t-116 -159t-21 -141h-176q1 138 31 207t142 193t112 224q0 101 -66 155t-192 54q-127 0 -277 -75l-14 190q177 60 347 60z" />
    <glyph glyph-name="at" unicode="@" horiz-adv-x="1562" 
d="M967 694q-1 202 -171 201q-82 0 -149 -81t-67 -180q0 -98 48 -154t131 -56q82 0 145 84t63 186zM98 678q0 196 94 361t260 259q164 94 355 95q191 -1 340 -79t233 -217t84 -287t-46 -260t-126 -180q-78 -67 -152 -67t-115 35t-50 94q-43 -67 -111 -104t-145 -37
q-123 -1 -205 93t-82 220t48 222t132 152q83 56 179 56q158 0 217 -137l22 115h131l-82 -420q-12 -64 -12 -98t19 -58t47 -24q83 0 149 114t66 258q0 214 -148 352t-379 138q-165 0 -301 -78t-214 -216t-79 -281q0 -275 162 -441q156 -166 434 -166q227 0 420 86l33 -119
q-205 -86 -447 -86q-321 0 -522 195q-99 98 -154 232t-55 278z" />
    <glyph glyph-name="A" unicode="A" horiz-adv-x="1398" 
d="M424 512h534l-157 381q-95 227 -111 305q-25 -87 -115 -309zM362 346l-141 -346h-211l582 1366h205l592 -1366h-220l-143 346h-664z" />
    <glyph glyph-name="B" unicode="B" horiz-adv-x="1185" 
d="M371 625v-459h151q95 0 141 6t87 27q122 56 122 186q0 77 -46 135t-120 82t-233 23h-102zM371 1200v-416h139q132 0 194 22t98 72q36 52 36 116t-40 114t-108 72q-66 20 -219 20h-100zM1032 1028q0 -272 -291 -334q78 -12 117 -24t80 -39q135 -91 135 -264
q0 -101 -49 -183q-84 -142 -265 -172q-73 -12 -194 -12h-389v1366h324q155 0 226 -12t134 -47q172 -100 172 -279z" />
    <glyph glyph-name="C" unicode="C" horiz-adv-x="1189" 
d="M98 703q0 187 90 343t255 243q164 87 359 87t324 -61l-16 -185q-78 44 -142 62t-143 18q-229 0 -373 -144t-145 -373q0 -229 150 -379t377 -150q139 0 292 61l15 -188q-141 -47 -280 -47q-348 0 -536 165q-227 200 -227 548z" />
    <glyph glyph-name="D" unicode="D" horiz-adv-x="1411" 
d="M371 1200v-1034h102q131 0 204 10t140 39q135 59 212 183t77 288q0 162 -90 295t-234 184q-102 35 -307 35h-104zM176 0v1366h283q331 0 475 -69t245 -203q136 -180 136 -410q1 -230 -123 -400t-336 -239q-140 -45 -367 -45h-313z" />
    <glyph glyph-name="E" unicode="E" horiz-adv-x="1079" 
d="M952 166v-166h-776v1366h760v-166h-565v-403h524v-166h-524v-465h581z" />
    <glyph glyph-name="F" unicode="F" horiz-adv-x="987" 
d="M371 625v-625h-195v1366h725v-166h-530v-409h510v-166h-510z" />
    <glyph glyph-name="G" unicode="G" horiz-adv-x="1406" 
d="M98 688q0 318 203 502q203 186 543 186q207 0 375 -67l-15 -187q-160 88 -348 88q-243 0 -396 -144t-153 -380q0 -234 153 -382t404 -148q90 0 185 30v396h-293v166h487v-695q-186 -63 -393 -63q-346 0 -549 190t-203 508z" />
    <glyph glyph-name="H" unicode="H" horiz-adv-x="1402" 
d="M371 627v-627h-195v1366h195v-573h661v573h195v-1366h-195v627h-661z" />
    <glyph glyph-name="I" unicode="I" horiz-adv-x="573" 
d="M385 1366v-1366h-195v1366h195z" />
    <glyph glyph-name="J" unicode="J" horiz-adv-x="753" 
d="M181 147q138 0 184 121q20 50 20 217v881h195v-930q0 -150 -7 -194t-36 -97q-91 -163 -326 -163q-59 0 -172 24v170q75 -29 142 -29z" />
    <glyph glyph-name="K" unicode="K" horiz-adv-x="1290" 
d="M371 0h-195v1366h195v-457q0 -123 -4 -164q111 124 112 125l477 496h263l-644 -647l699 -719h-283l-497 530q-7 6 -125 146q2 -74 2 -139v-537z" />
    <glyph glyph-name="L" unicode="L" horiz-adv-x="983" 
d="M948 166v-166h-772v1366h195v-1200h577z" />
    <glyph glyph-name="M" unicode="M" horiz-adv-x="1853" 
d="M371 0h-195v1366h322l268 -686q142 -360 162 -459q30 109 164 463l260 682h325v-1366h-194v780l6 467v29q-11 -34 -12 -35l-33 -106q-17 -57 -55 -159t-55 -157t-43 -113l-273 -706h-189l-258 664q-144 370 -176 473q-33 103 -45 139v-31q10 -113 12 -186l9 -293v-766z
" />
    <glyph glyph-name="N" unicode="N" horiz-adv-x="1443" 
d="M371 0h-195v1366h266l465 -805q139 -242 187 -391q-21 209 -21 539v657h195v-1366h-252l-432 741q-188 320 -230 469q17 -206 17 -514v-696z" />
    <glyph glyph-name="O" unicode="O" horiz-adv-x="1517" 
d="M307 688q1 -250 127 -406t325 -155q199 0 325 154t126 400t-124 402t-326 156q-203 0 -328 -151q-125 -150 -125 -400zM98 684q0 150 51 294q149 416 619 415q296 1 474 -193t177 -506q0 -312 -164 -516q-170 -205 -485 -205t-489 193q-85 92 -134 230t-49 288z" />
    <glyph glyph-name="P" unicode="P" horiz-adv-x="1087" 
d="M373 1200v-487h106q173 0 233 35q122 70 122 210q0 82 -46 140t-122 80t-211 22h-82zM373 547v-547h-195v1366h271q142 0 214 -8q215 -22 313 -170q66 -100 66 -229q0 -131 -64 -229t-172 -140q-107 -42 -325 -43h-108z" />
    <glyph glyph-name="Q" unicode="Q" horiz-adv-x="1517" 
d="M307 690q0 -249 126 -406t326 -157q199 0 325 153t126 400t-124 403t-325 156q-202 0 -328 -150t-126 -399zM98 683q0 323 180 517t482 193q161 -1 288 -55t207 -151q164 -199 164 -509q1 -228 -93 -396t-269 -251l327 -295h-256l-260 244q-80 -7 -104 -7
q-302 -1 -484 193t-182 517z" />
    <glyph glyph-name="R" unicode="R" horiz-adv-x="1193" 
d="M371 1200v-424h121q144 0 210 24t102 74t36 115q0 67 -35 117t-94 72t-199 22h-141zM371 608v-608h-195v1366h330q123 0 184 -7q198 -23 288 -151q62 -88 62 -182q0 -178 -112 -270q-66 -52 -178 -72q60 -26 96 -65t74 -121l231 -498h-225l-176 410q-56 128 -103 163
t-164 35h-112z" />
    <glyph glyph-name="S" unicode="S" horiz-adv-x="970" 
d="M88 1020q0 167 118 270t312 103q149 0 299 -50l-24 -172q-149 56 -257 56q-108 -1 -176 -53t-69 -129t47 -127t174 -113l74 -37q172 -86 238 -169t65 -214q0 -185 -128 -299t-337 -113q-166 0 -313 56l20 182q151 -72 273 -72t199 64q77 63 77 153t-50 146t-161 108
l-76 35q-163 75 -234 162t-71 213z" />
    <glyph glyph-name="T" unicode="T" horiz-adv-x="1083" 
d="M449 0v1200h-437v166h1059v-166h-428v-1200h-194z" />
    <glyph glyph-name="U" unicode="U" horiz-adv-x="1409" 
d="M176 1366h195v-715q1 -141 11 -215t44 -142q34 -67 112 -111t180 -44q104 0 180 53t112 154q20 51 24 109t4 186v725h195v-770q0 -155 -18 -243t-64 -160q-140 -220 -444 -220q-169 -1 -295 73t-181 201t-55 376v743z" />
    <glyph glyph-name="V" unicode="V" horiz-adv-x="1296" 
d="M770 0h-238l-522 1366h215l334 -901q65 -177 96 -305q26 121 93 305l333 901h205z" />
    <glyph glyph-name="W" unicode="W" horiz-adv-x="1953" 
d="M682 0h-252l-420 1366h213l236 -799q75 -260 96 -377q12 83 86 383l197 793h280l209 -799q25 -94 50 -201t33 -133t11 -43q26 153 90 377l234 799h201l-410 -1366h-248l-237 897q-50 183 -76 311q-61 -282 -68 -311z" />
    <glyph glyph-name="X" unicode="X" horiz-adv-x="1300" 
d="M635 584l-389 -584h-234l504 717l-465 649h236l362 -516l361 516h225l-459 -649l512 -717h-248z" />
    <glyph glyph-name="Y" unicode="Y" horiz-adv-x="1288" 
d="M551 0v573l-541 793h242l338 -512q42 -62 59 -102q23 50 42 74l356 540h231l-533 -786v-580h-194z" />
    <glyph glyph-name="Z" unicode="Z" horiz-adv-x="1093" 
d="M1014 166v-166h-953v166l555 805q117 172 175 233q-89 -4 -191 -4h-514v166h915v-180l-585 -842q-4 -8 -25 -36l-69 -94q-8 -8 -10 -12t-4 -5l-23 -37q49 6 151 6h578z" />
    <glyph glyph-name="bracketleft" unicode="[" horiz-adv-x="727" 
d="M575 -287v-131h-380v1893h380v-134h-204v-1628h204z" />
    <glyph glyph-name="backslash" unicode="\" horiz-adv-x="890" 
d="M950 -418h-164l-686 1893h158z" />
    <glyph glyph-name="bracketright" unicode="]" horiz-adv-x="727" 
d="M532 -418h-380v133h204v1628h-204v132h380v-1893z" />
    <glyph glyph-name="asciicircum" unicode="^" horiz-adv-x="1024" 
d="M512 1225l-276 -496h-197l352 641h242l352 -641h-197z" />
    <glyph glyph-name="underscore" unicode="_" horiz-adv-x="1024" 
d="M1024 -289h-1024v168h1024v-168z" />
    <glyph glyph-name="grave" unicode="`" horiz-adv-x="1024" 
d="M627 1169h-131l-242 281h205z" />
    <glyph glyph-name="a" unicode="a" horiz-adv-x="1083" 
d="M285 289q-1 -69 53 -113t138 -43q84 0 150 39t98 104t32 197q-52 6 -101 6q-370 0 -370 -190zM489 862q-139 0 -282 -98l-10 164q163 92 314 92q370 0 412 -294q9 -63 9 -177v-209q0 -216 10 -340h-170q-2 52 -2 71t2 101q-111 -186 -336 -186q-158 0 -253 82t-95 230
t136 232q136 86 388 86q46 0 140 -6q0 128 -62 190t-201 62z" />
    <glyph glyph-name="b" unicode="b" horiz-adv-x="1181" 
d="M336 503q0 -155 84 -257t206 -103t200 101t79 260q0 158 -75 258q-74 100 -200 100t-210 -102t-84 -257zM329 857q-1 -3 -1 -13t-2 -14q37 86 132 138q94 52 214 52q194 0 312 -139t118 -374t-118 -378t-316 -143q-117 0 -207 48t-137 138v-172h-179v1475h187v-529z" />
    <glyph glyph-name="c" unicode="c" horiz-adv-x="874" 
d="M610 145q105 0 209 64l15 -170q-105 -51 -246 -51q-228 0 -368 141t-140 362t123 359q69 76 171 120t216 44t219 -41l-12 -164q-79 47 -183 47q-150 0 -244 -98t-94 -254q0 -157 93 -258t241 -101z" />
    <glyph glyph-name="d" unicode="d" horiz-adv-x="1187" 
d="M276 500q0 -159 78 -258t204 -99q126 -1 208 101t82 256t-82 258t-205 104q-125 0 -205 -102t-80 -260zM844 1475h186v-1008q0 -206 14 -467h-180v168q-66 -94 -148 -138t-198 -44q-202 0 -320 138t-118 372t122 379t324 145q203 0 324 -174l-4 88l-2 49v492z" />
    <glyph glyph-name="e" unicode="e" horiz-adv-x="1069" 
d="M547 881q-110 -1 -185 -77t-94 -206h535q-19 148 -75 206q-25 26 -72 52t-109 25zM80 504q0 240 130 382t340 142t324 -142t115 -401q0 -14 -2 -32h-721q18 -150 108 -236t238 -86t301 94v-178q-165 -74 -321 -74q-236 -1 -374 145t-138 386z" />
    <glyph glyph-name="f" unicode="f" horiz-adv-x="722" 
d="M242 0v856h-236v145h236v43q0 211 53 299q79 138 270 138q58 0 135 -17v-153q-64 12 -94 12q-130 0 -162 -102q-16 -57 -16 -174v-46h272v-145h-272v-856h-186z" />
    <glyph glyph-name="g" unicode="g" horiz-adv-x="1159" 
d="M276 503q0 -155 78 -251t202 -96q126 0 208 98t82 250q0 150 -82 253t-206 103q-122 0 -202 -100t-80 -257zM854 829v175h174v-830q0 -148 -6 -218q-36 -388 -483 -388q-187 0 -379 70l18 180q189 -92 357 -92q212 0 282 151q32 67 35 205q0 40 2 84q-114 -168 -323 -168
t-330 138t-121 365q0 229 121 373t315 144q117 0 207 -50t131 -139z" />
    <glyph glyph-name="h" unicode="h" horiz-adv-x="1161" 
d="M330 0h-187v1475h187v-478q0 -108 -6 -157q106 180 333 180q123 0 211 -56t126 -155t38 -283v-526h-186v434q0 195 -19 262q-45 166 -209 166q-92 0 -164 -56q-104 -80 -119 -243q-5 -58 -5 -166v-397z" />
    <glyph glyph-name="i" unicode="i" horiz-adv-x="468" 
d="M328 1001v-1001h-187v1001h187zM332 1446v-205h-203v205h203z" />
    <glyph glyph-name="j" unicode="j" horiz-adv-x="507" 
d="M30 -266q35 0 74 24q65 39 68 123q2 36 2 139v981h186v-981q0 -133 -3 -176q-13 -153 -119 -223q-71 -47 -166 -47q-43 0 -109 10v154q32 -4 67 -4zM369 1446v-205h-203v205h203z" />
    <glyph glyph-name="k" unicode="k" horiz-adv-x="1060" 
d="M330 365v-365h-187v1475h187v-707q0 -69 -1 -94l-2 -52q1 -18 -1 -24t-2 -14q33 42 86 92l325 325h250l-467 -442l531 -559h-263l-340 369q-13 15 -50 63t-72 84q6 -48 6 -151z" />
    <glyph glyph-name="l" unicode="l" horiz-adv-x="468" 
d="M328 1475v-1475h-187v1475h187z" />
    <glyph glyph-name="m" unicode="m" horiz-adv-x="1728" 
d="M640 1020q110 0 186 -52t108 -149q100 201 330 201q114 0 194 -56t111 -152q30 -96 30 -286v-526h-186v492q0 162 -9 203q-8 43 -18 69q-35 98 -167 98q-75 0 -140 -57q-94 -82 -105 -233q-3 -42 -3 -148v-424h-187v514q0 161 -16 219q-16 57 -60 93t-112 36t-132 -49
t-89 -115t-30 -108q-5 -41 -5 -148v-442h-186v565q0 179 -13 436h172l11 -161q40 84 124 132q82 48 192 48z" />
    <glyph glyph-name="n" unicode="n" horiz-adv-x="1169" 
d="M668 1020q131 0 221 -64q91 -64 121 -164t30 -325v-467h-186v451q0 119 -3 164q-9 141 -90 204q-55 43 -141 43t-157 -56q-106 -82 -119 -251q-4 -47 -4 -188v-367h-186v496q0 244 -13 505h174l9 -157q119 176 344 176z" />
    <glyph glyph-name="o" unicode="o" horiz-adv-x="1185" 
d="M276 500q0 -166 89 -273q89 -106 227 -106q138 -1 228 105t89 272t-89 274q-88 109 -226 109q-138 1 -228 -107t-90 -274zM80 498q0 230 144 380t370 150q224 0 368 -149t144 -381t-146 -378t-370 -147q-144 0 -261 68q-117 69 -183 189t-66 268z" />
    <glyph glyph-name="p" unicode="p" horiz-adv-x="1189" 
d="M340 504q0 -154 84 -258q84 -103 207 -103q122 1 201 103t79 259t-75 257q-74 100 -200 100t-211 -102t-85 -256zM674 -14q-238 0 -344 196l2 -32q8 -122 8 -160v-408h-186v981q0 217 -13 438h176l13 -176q117 195 348 195q194 0 312 -140t118 -372t-120 -377t-314 -145z
" />
    <glyph glyph-name="q" unicode="q" horiz-adv-x="1183" 
d="M274 501q0 -158 80 -258t204 -100q126 -1 208 101t82 256t-81 258t-205 104t-206 -102t-82 -259zM858 889l-2 112h180v-1419h-186v434q0 107 10 158q-113 -188 -346 -188q-200 0 -318 138t-118 374q0 234 122 378t320 144q120 0 210 -54t134 -153q-6 29 -6 76z" />
    <glyph glyph-name="r" unicode="r" horiz-adv-x="737" 
d="M608 1016q47 0 101 -15v-170q-48 19 -88 19q-91 0 -159 -56q-101 -82 -118 -241q-4 -43 -4 -160v-393h-186v610q0 101 -13 391h172l11 -178q88 193 284 193z" />
    <glyph glyph-name="s" unicode="s" horiz-adv-x="774" 
d="M72 742q0 120 96 198q96 80 252 80q110 0 233 -41l-14 -158q-102 51 -191 51q-88 0 -134 -34t-46 -82q0 -50 34 -84t106 -70l75 -37q124 -61 175 -123t51 -155q-1 -137 -101 -221t-251 -84t-273 57v166q138 -66 229 -66t145 37q54 38 54 92t-28 79t-105 65l-78 39
q-113 58 -156 98q-73 73 -73 193z" />
    <glyph glyph-name="t" unicode="t" horiz-adv-x="751" 
d="M225 856h-231v145h231v226l187 63v-289h264v-145h-264v-397q0 -150 10 -201t50 -82t100 -31q59 0 124 31v-160q-93 -28 -178 -28q-84 0 -152 34t-96 86t-36 114t-9 181v453z" />
    <glyph glyph-name="u" unicode="u" horiz-adv-x="1159" 
d="M129 1001h186v-464q0 -197 26 -266q52 -138 196 -138q76 0 139 42q63 43 95 107t39 110t7 169v440h187v-630q0 -155 12 -371h-170l-10 156q-120 -170 -336 -170q-235 0 -326 186q-45 92 -45 299v530z" />
    <glyph glyph-name="v" unicode="v" horiz-adv-x="966" 
d="M594 0h-213l-369 1001h201l205 -577q65 -175 74 -250q8 51 18 84l260 743h184z" />
    <glyph glyph-name="w" unicode="w" horiz-adv-x="1622" 
d="M555 0h-213l-330 1001h203l164 -538q65 -215 76 -295l8 35q18 76 49 174l197 624h217l182 -550q38 -111 78 -283q17 118 71 289l168 544h185l-320 -1001h-215l-172 514q-55 164 -92 328q-41 -166 -90 -324z" />
    <glyph glyph-name="x" unicode="x" horiz-adv-x="972" 
d="M439 325l-210 -325h-217l359 526l-332 475h227l164 -247q49 -76 66 -125q14 41 67 127l156 245h205l-320 -475l357 -526h-230l-186 289q-50 79 -66 121q-15 -51 -25 -62q-9 -11 -15 -23z" />
    <glyph glyph-name="y" unicode="y" horiz-adv-x="964" 
d="M188 -424q-41 0 -114 14l10 152q48 -18 88 -18q84 0 133 55q62 77 92 180l-385 1042h201l223 -632q50 -141 53 -207q8 58 14 76q6 17 11 33t18 51l236 679h184l-356 -991q-51 -141 -78 -199t-65 -108q-94 -127 -265 -127z" />
    <glyph glyph-name="z" unicode="z" horiz-adv-x="972" 
d="M887 145v-145h-813v152l473 581q29 35 49 59t45 50l18 18q-55 -4 -143 -4h-420v145h768v-155l-483 -590q-43 -51 -80 -90q-4 -7 -25 -31q37 10 156 10h455z" />
    <glyph glyph-name="braceleft" unicode="{" horiz-adv-x="1009" 
d="M395 782v408q0 234 184 274q52 12 154 11h33v-134q-122 0 -158 -31t-37 -136v-402q1 -100 -25 -152t-93 -92q66 -40 92 -94t26 -153v-396q-1 -74 15 -109q16 -34 58 -48t122 -13v-133h-90q-145 0 -213 72t-68 227v389q1 90 -25 134t-89 59v131q61 17 87 61t27 127z" />
    <glyph glyph-name="bar" unicode="|" horiz-adv-x="1024" 
d="M604 1366v-1708h-184v1708h184z" />
    <glyph glyph-name="braceright" unicode="}" horiz-adv-x="1009" 
d="M244 -418v133q122 0 158 31t36 137v402q0 99 26 151t93 92q-67 40 -93 94t-26 154v395q0 107 -36 139t-158 31v134h90q144 -1 212 -73t68 -226v-390q0 -89 26 -133t89 -59v-131q-61 -17 -88 -61t-27 -128v-407q0 -235 -182 -274q-52 -11 -156 -11h-32z" />
    <glyph glyph-name="asciitilde" unicode="~" horiz-adv-x="1366" 
d="M484 1499q66 0 187 -53q123 -54 157 -64t78 -10t80 28t83 103l109 -63q-62 -125 -125 -178q-85 -66 -168 -66t-303 94q-70 31 -120 31t-88 -32t-79 -109l-107 69q39 77 56 107t51 70q35 40 79 56t110 17z" />
    <glyph glyph-name="uni00A0" unicode="&#xa0;" horiz-adv-x="512" 
 />
    <glyph glyph-name="cent" unicode="&#xa2;" 
d="M385 697q0 -132 67 -224t187 -123v688q-122 -34 -188 -122t-66 -219zM186 692q0 212 124 350t329 162v158h104v-158q106 -12 175 -37l-13 -163q-64 37 -162 43v-705q103 9 183 59l16 -168q-87 -43 -199 -49v-164h-104v164q-211 22 -332 158q-121 138 -121 350z" />
    <glyph glyph-name="sterling" unicode="&#xa3;" 
d="M777 1217q-89 -1 -161 -51t-96 -130t-24 -227v-37h317v-108h-311v-502h481v-162h-858v162h182v502h-164v108h162v47q-1 156 17 236q18 79 72 155t152 121q100 45 221 45t239 -39l-17 -170q-123 50 -212 50z" />
    <glyph glyph-name="yen" unicode="&#xa5;" 
d="M74 887h207l-271 479h242l262 -514q30 -55 43 -100q12 38 39 96l262 518h234l-267 -479h203v-109h-264l-92 -166h336v-108h-355v-504h-194v504h-365v108h342l-94 166h-268v109z" />
    <glyph glyph-name="brokenbar" unicode="&#xa6;" horiz-adv-x="1024" 
d="M604 -342h-184v655h184v-655zM604 1366v-690h-184v690h184z" />
    <glyph glyph-name="section" unicode="&#xa7;" 
d="M260 598q0 -137 200 -222q30 -13 72 -28l187 -74q60 51 85 98t25 117q-1 70 -51 119t-200 115l-201 88q-117 -101 -117 -213zM109 548q0 122 63 210q26 34 54 54t85 42q-89 48 -127 98q-59 77 -59 185q0 157 130 257t319 99q189 0 327 -43l-18 -170q-149 57 -286 57
t-215 -53t-79 -133q0 -79 52 -129t192 -107l143 -59q84 -34 123 -56t78 -57q100 -85 100 -227q1 -98 -49 -170t-156 -125q95 -47 138 -111t43 -161q1 -175 -141 -280t-377 -105q-181 0 -334 53l16 180q171 -71 323 -71t235 55t83 141t-50 134t-190 106l-118 49
q-160 65 -232 140t-73 197z" />
    <glyph glyph-name="dieresis" unicode="&#xa8;" horiz-adv-x="1024" 
d="M786 1401v-199h-178v199h178zM416 1401v-199h-178v199h178z" />
    <glyph glyph-name="copyright" unicode="&#xa9;" horiz-adv-x="1607" 
d="M860 971q-134 -1 -218 -79t-85 -202q0 -124 88 -207q88 -82 221 -82q85 0 183 37l8 -123q-90 -28 -189 -28q-208 0 -330 108t-122 286t122 288t316 110q114 0 197 -37l-13 -120q-94 49 -178 49zM209 705q0 -275 175 -452q177 -179 442 -179q140 0 277 81t217 221t79 284
t-47 256q-46 114 -126 197t-189 131t-249 48t-280 -80t-219 -222q-80 -142 -80 -285zM98 684q0 192 94 356t260 258q165 94 363 95q137 0 266 -56t224 -153q95 -96 149 -228t55 -274q-1 -142 -55 -272q-54 -132 -150 -229t-227 -153t-296 -55q-165 -1 -328 95t-259 260
t-96 356z" />
    <glyph glyph-name="ordfeminine" unicode="&#xaa;" horiz-adv-x="727" 
d="M641 670v-97h-535v97h535zM225 956q0 -38 32 -62t82 -24q107 0 150 82q17 36 17 103q-17 4 -53 4q-228 0 -228 -103zM354 1282q-95 0 -192 -63l-6 116q106 58 207 58q198 0 251 -127q21 -56 21 -166v-35q-2 -30 -2 -118t8 -173h-123q-2 38 -2 53v29q-76 -90 -191 -90
t-177 50t-62 142q0 91 88 144t248 53q46 0 82 -4q-3 131 -150 131z" />
    <glyph glyph-name="guillemotleft" unicode="&#xab;" horiz-adv-x="1095" 
d="M963 100h-175l-282 406l274 397h178l-253 -397zM565 100h-174l-282 406l274 397h178l-254 -397z" />
    <glyph glyph-name="logicalnot" unicode="&#xac;" horiz-adv-x="1024" 
d="M770 0v375h-702v172h886v-547h-184z" />
    <glyph glyph-name="uni00AD" unicode="&#xad;" horiz-adv-x="514" 
d="M514 582v-154h-514v154h514z" />
    <glyph glyph-name="registered" unicode="&#xae;" horiz-adv-x="1607" 
d="M676 963v-220h65q107 0 153 26t46 84t-44 84t-144 26h-76zM676 633v-340h-133v780h205q124 0 188 -20t103 -72q38 -53 38 -121q-1 -68 -41 -114q-40 -47 -114 -66q48 -25 82 -96l145 -291h-154l-106 233q-31 69 -59 88t-95 19h-59zM209 705q0 -275 175 -452
q177 -179 442 -179q140 0 277 81t217 221t79 284t-47 256q-46 114 -126 197t-189 131t-249 48t-280 -80t-219 -222q-80 -142 -80 -285zM98 684q0 192 94 356t260 258q165 94 363 95q137 0 266 -56t224 -153q95 -96 149 -228t55 -274q-1 -142 -55 -272q-54 -132 -150 -229
t-227 -153t-296 -55q-165 -1 -328 95t-259 260t-96 356z" />
    <glyph glyph-name="macron" unicode="&#xaf;" horiz-adv-x="1024" 
d="M803 1356v-117h-582v117h582z" />
    <glyph glyph-name="degree" unicode="&#xb0;" horiz-adv-x="768" 
d="M203 1202q1 -74 53 -127t127 -53t129 53t53 127q1 74 -53 126t-128 52t-128 -52q-53 -52 -53 -126zM86 1202q0 121 88 206t210 85q122 1 210 -85t88 -206t-87 -207q-87 -86 -211 -86t-212 86q-86 86 -86 207z" />
    <glyph glyph-name="plusminus" unicode="&#xb1;" 
d="M1022 266v-149h-942v149h942zM475 362v383h-395v150h395v381h150v-381h397v-150h-397v-383h-150z" />
    <glyph glyph-name="uni00B2" unicode="&#xb2;" horiz-adv-x="507" 
d="M55 913q273 219 273 307q0 43 -31 66t-86 23t-131 -45l-12 90q93 35 174 35q80 0 136 -44q56 -45 56 -105t-30 -109q-58 -97 -228 -232h270v-80h-391v94z" />
    <glyph glyph-name="uni00B3" unicode="&#xb3;" horiz-adv-x="507" 
d="M204 893q58 0 94 25q34 25 34 63q0 90 -164 90h-35v82h31q78 0 122 22t44 58t-32 57t-86 21q-56 0 -132 -33l-8 86q82 27 166 27q84 -1 138 -41q56 -40 56 -119t-100 -119q58 -23 82 -55t24 -94t-61 -106t-154 -44t-168 25l4 90q87 -35 145 -35z" />
    <glyph glyph-name="acute" unicode="&#xb4;" horiz-adv-x="1024" 
d="M770 1450l-242 -281h-131l168 281h205z" />
    <glyph glyph-name="periodcentered" unicode="&#xb7;" horiz-adv-x="546" 
d="M383 614v-219h-219v219h219z" />
    <glyph glyph-name="uni00B9" unicode="&#xb9;" horiz-adv-x="507" 
d="M338 1382v-563h-100v451q-10 -10 -21 -17l-63 -53l-60 64l154 118h90z" />
    <glyph glyph-name="guillemotright" unicode="&#xbb;" horiz-adv-x="1095" 
d="M985 506l-280 -406h-177l260 406l-253 397h176zM588 506l-283 -406h-174l258 406l-254 397h178z" />
    <glyph glyph-name="onequarter" unicode="&#xbc;" horiz-adv-x="1765" 
d="M1260 301h198l4 293q0 4 2 24t2 44l-53 -94q-44 -78 -76 -134q-31 -56 -47 -83t-30 -50zM1458 0v172h-360v115l319 534h187v-520h102v-129h-102v-172h-146zM479 1366v-823h-145v635l-103 -91l-84 103l207 176h125zM1315 1432l-748 -1498h-118l745 1498h121z" />
    <glyph glyph-name="onehalf" unicode="&#xbd;" horiz-adv-x="1765" 
d="M1645 602q1 -98 -79 -212t-249 -261h344v-129h-528v145q186 162 271 269t85 180q0 46 -38 76q-37 30 -107 30t-179 -65l-16 143q128 53 237 53q108 0 184 -65q76 -66 75 -164zM479 1366v-823h-145v635l-103 -91l-84 103l207 176h125zM1315 1432l-748 -1498h-118l745 1498
h121z" />
    <glyph glyph-name="threequarters" unicode="&#xbe;" horiz-adv-x="1765" 
d="M1260 301h198l4 293q0 4 2 24t2 44l-53 -94q-44 -78 -76 -134q-31 -56 -47 -83t-30 -50zM1458 0v172h-360v115l319 534h187v-520h102v-129h-102v-172h-146zM296 662q74 0 118 34t43 86q0 125 -205 125q-27 0 -55 -4v133h45q102 0 158 30t55 80q0 50 -38 77
q-38 28 -110 28t-180 -51l-10 137q109 39 225 39t188 -60q74 -60 74 -172t-123 -171q69 -35 100 -83t31 -118q0 -108 -82 -174t-205 -66q-122 0 -231 39l8 144q120 -53 194 -53zM1315 1432l-748 -1498h-118l745 1498h121z" />
    <glyph glyph-name="uni2000" unicode="&#x2000;" horiz-adv-x="926" 
 />
    <glyph glyph-name="uni2001" unicode="&#x2001;" horiz-adv-x="1853" 
 />
    <glyph glyph-name="uni2002" unicode="&#x2002;" horiz-adv-x="926" 
 />
    <glyph glyph-name="uni2003" unicode="&#x2003;" horiz-adv-x="1853" 
 />
    <glyph glyph-name="uni2004" unicode="&#x2004;" horiz-adv-x="617" 
 />
    <glyph glyph-name="uni2005" unicode="&#x2005;" horiz-adv-x="463" 
 />
    <glyph glyph-name="uni2006" unicode="&#x2006;" horiz-adv-x="308" 
 />
    <glyph glyph-name="uni2007" unicode="&#x2007;" horiz-adv-x="308" 
 />
    <glyph glyph-name="uni2008" unicode="&#x2008;" horiz-adv-x="231" 
 />
    <glyph glyph-name="uni2009" unicode="&#x2009;" horiz-adv-x="370" 
 />
    <glyph glyph-name="uni200A" unicode="&#x200a;" horiz-adv-x="102" 
 />
    <glyph glyph-name="uni2010" unicode="&#x2010;" horiz-adv-x="514" 
d="M514 582v-154h-514v154h514z" />
    <glyph glyph-name="uni2011" unicode="&#x2011;" horiz-adv-x="514" 
d="M514 582v-154h-514v154h514z" />
    <glyph glyph-name="figuredash" unicode="&#x2012;" horiz-adv-x="514" 
d="M514 582v-154h-514v154h514z" />
    <glyph glyph-name="endash" unicode="&#x2013;" 
d="M1014 582v-154h-926v154h926z" />
    <glyph glyph-name="emdash" unicode="&#x2014;" horiz-adv-x="1456" 
d="M1456 582v-154h-1456v154h1456z" />
    <glyph glyph-name="quoteleft" unicode="&#x2018;" horiz-adv-x="559" 
d="M465 1475l-123 -482h-219l170 482h172z" />
    <glyph glyph-name="quoteright" unicode="&#x2019;" horiz-adv-x="559" 
d="M438 1475l-170 -482h-172l123 482h219z" />
    <glyph glyph-name="quotesinglbase" unicode="&#x201a;" horiz-adv-x="559" 
d="M438 219l-170 -481h-172l123 481h219z" />
    <glyph glyph-name="quotedblleft" unicode="&#x201c;" horiz-adv-x="931" 
d="M838 1475l-123 -482h-219l170 482h172zM465 1475l-123 -482h-219l170 482h172z" />
    <glyph glyph-name="quotedblright" unicode="&#x201d;" horiz-adv-x="931" 
d="M811 1475l-170 -482h-172l121 482h221zM438 1475l-170 -482h-172l123 482h219z" />
    <glyph glyph-name="quotedblbase" unicode="&#x201e;" horiz-adv-x="931" 
d="M838 219l-170 -483h-172l120 483h222zM465 219l-170 -483h-172l123 483h219z" />
    <glyph glyph-name="bullet" unicode="&#x2022;" horiz-adv-x="1366" 
d="M401 694q-1 118 83 200t202 83q118 0 200 -84q83 -84 83 -201q0 -118 -83 -200q-82 -82 -200 -82t-202 82q-84 84 -83 202z" />
    <glyph glyph-name="ellipsis" unicode="&#x2026;" horiz-adv-x="1642" 
d="M1479 219v-219h-219v219h219zM930 219v-219h-219v219h219zM383 219v-219h-219v219h219z" />
    <glyph glyph-name="uni202F" unicode="&#x202f;" horiz-adv-x="370" 
 />
    <glyph glyph-name="guilsinglleft" unicode="&#x2039;" horiz-adv-x="698" 
d="M565 100h-174l-282 406l274 397h178l-254 -397z" />
    <glyph glyph-name="guilsinglright" unicode="&#x203a;" horiz-adv-x="698" 
d="M588 506l-283 -406h-174l258 406l-254 397h178z" />
    <glyph glyph-name="uni205F" unicode="&#x205f;" horiz-adv-x="463" 
 />
    <glyph glyph-name="Euro" unicode="&#x20ac;" horiz-adv-x="1339" 
d="M219 655v68h-133l35 108h110q51 275 217 419t429 143q218 0 376 -101l-61 -190q-122 137 -302 137q-180 1 -298 -109t-152 -299h666l-35 -108h-643v-68h621l-35 -108h-574q34 -196 152 -308t296 -112t306 141v-229q-142 -66 -315 -66q-264 0 -435 151t-215 423h-143
l35 108h98z" />
    <glyph glyph-name="trademark" unicode="&#x2122;" horiz-adv-x="1763" 
d="M881 588h-133v780h206l164 -389q4 -5 38 -87t52 -142q36 105 88 231l160 387h209v-780h-133v444l2 228q-54 -162 -111 -295l-157 -377h-123l-158 377q-44 103 -113 284q9 -133 9 -225v-436zM262 588v669h-262v111h651v-111h-256v-669h-133z" />
    <glyph glyph-name="uniE000" unicode="&#xe000;" horiz-adv-x="1003" 
d="M1004 1004v-1004h-1004v1004h1004z" />
    <glyph glyph-name="uniFB01" unicode="&#xfb01;" horiz-adv-x="1234" 
d="M1094 1001v-1001h-187v1001h187zM1098 1446v-205h-203v205h203zM242 0v856h-236v145h236v43q0 211 53 299q79 138 270 138q58 0 135 -17v-153q-64 12 -94 12q-130 0 -162 -102q-16 -57 -16 -174v-46h272v-145h-272v-856h-186z" />
    <glyph glyph-name="uniFB02" unicode="&#xfb02;" horiz-adv-x="1234" 
d="M1094 1475v-1475h-187v1475h187zM242 0v856h-236v145h236v43q0 211 53 299q79 138 270 138q58 0 135 -17v-153q-64 12 -94 12q-130 0 -162 -102q-16 -57 -16 -174v-46h272v-145h-272v-856h-186z" />
    <glyph glyph-name="uniFB03" unicode="&#xfb03;" horiz-adv-x="1943" 
d="M1749 1001v-1001h-186v1001h186zM1755 1446v-205h-203v205h203zM242 0v856h-236v145h236v43q0 211 53 299q79 138 270 138q58 0 135 -17v-153q-64 12 -94 12q-130 0 -162 -102q-16 -57 -16 -174v-46h471v41q0 335 169 410q65 29 142 29t154 -17l-12 -153q-49 10 -92 10
q-124 0 -156 -102q-17 -65 -17 -172v-46h269v-145h-266v-856h-187v856h-475v-856h-186z" />
    <glyph glyph-name="uniFB04" unicode="&#xfb04;" horiz-adv-x="1939" 
d="M1749 1475v-1475h-186v1475h186zM242 0v856h-236v145h236v43q0 211 53 299q79 138 270 138q58 0 135 -17v-153q-64 12 -94 12q-130 0 -162 -102q-16 -57 -16 -174v-46h471v41q0 215 70 327t258 112q63 0 137 -17l-12 -153q-49 10 -92 10q-124 0 -156 -102
q-17 -65 -17 -172v-46h269v-145h-266v-856h-187v856h-475v-856h-186z" />
  </font>
</defs>
</svg>
